<?xml version="1.0" standalone="no"?>
<!DOCTYPE svg PUBLIC "-//W3C//DTD SVG 1.1//EN" "http://www.w3.org/Graphics/SVG/1.1/DTD/svg11.dtd" >
<svg xmlns="http://www.w3.org/2000/svg">
<metadata>Generated by IcoMoon</metadata>
<defs>
<font id="icomoon" horiz-adv-x="1024">
<font-face units-per-em="1024" ascent="960" descent="-64" />
<missing-glyph horiz-adv-x="1024" />
<glyph unicode="&#x20;" horiz-adv-x="512" d="" />
<glyph unicode="&#xe900;" glyph-name="Odyssey_Arrow-Down" d="M702.080 305.92l-142.080-142.080v684.16c0 26.51-21.49 48-48 48s-48-21.49-48-48v0-684.16l-142.080 142.080c-8.787 9.411-21.267 15.277-35.117 15.277-26.51 0-48-21.49-48-48 0-13.85 5.866-26.33 15.249-35.092l0.028-0.026 224-224c8.684-8.674 20.676-14.038 33.92-14.038s25.236 5.364 33.921 14.038l223.999 223.999c7.982 8.549 12.883 20.063 12.883 32.723 0 26.51-21.49 48-48 48-12.659 0-24.174-4.901-32.751-12.908l0.028 0.026z" />
<glyph unicode="&#xe901;" glyph-name="Odyssey_Arrow-Left" d="M912 496h-684.16l142.080 142.080c9.411 8.787 15.277 21.267 15.277 35.117 0 26.51-21.49 48-48 48-13.85 0-26.33-5.866-35.092-15.249l-0.026-0.028-224-224c-8.752-8.648-14.172-20.651-14.172-33.92s5.42-25.272 14.167-33.915l224.005-224.005c8.684-8.674 20.676-14.038 33.92-14.038s25.236 5.364 33.921 14.038l-0.001-0.001c8.752 8.648 14.172 20.651 14.172 33.92s-5.42 25.272-14.167 33.915l-142.085 142.085h684.16c26.51 0 48 21.49 48 48s-21.49 48-48 48v0z" />
<glyph unicode="&#xe902;" glyph-name="Odyssey_Arrow-Right" d="M721.92 705.92c-8.787 9.411-21.267 15.277-35.117 15.277-26.51 0-48-21.49-48-48 0-13.85 5.866-26.33 15.249-35.092l0.028-0.026 142.080-142.080h-684.16c-26.51 0-48-21.49-48-48s21.49-48 48-48v0h684.16l-142.080-142.080c-8.752-8.648-14.172-20.651-14.172-33.92s5.42-25.272 14.167-33.915l0.005-0.005c8.684-8.674 20.676-14.038 33.92-14.038s25.236 5.364 33.921 14.038l223.999 223.999c8.752 8.648 14.172 20.651 14.172 33.92s-5.42 25.272-14.167 33.915l-0.005 0.005z" />
<glyph unicode="&#xe903;" glyph-name="Odyssey_Arrow-Up" d="M769.92 657.92l-224 224c-8.648 8.752-20.651 14.172-33.92 14.172s-25.272-5.42-33.915-14.167l-224.005-224.005c-9.411-8.787-15.277-21.267-15.277-35.117 0-26.51 21.49-48 48-48 13.85 0 26.33 5.866 35.092 15.249l0.026 0.028 142.080 142.080v-684.16c0-26.51 21.49-48 48-48s48 21.49 48 48v0 684.16l142.080-142.080c8.684-8.674 20.676-14.038 33.92-14.038s25.236 5.364 33.921 14.038l-0.001-0.001c8.752 8.648 14.172 20.651 14.172 33.92s-5.42 25.272-14.167 33.915l-0.005 0.005z" />
<glyph unicode="&#xe904;" glyph-name="Odyssey_Calendar" d="M848 800h-48v48c0 26.51-21.49 48-48 48s-48-21.49-48-48v0-48h-64v48c0 26.51-21.49 48-48 48s-48-21.49-48-48v0-48h-64v48c0 26.51-21.49 48-48 48s-48-21.49-48-48v0-48h-64v48c0 26.51-21.49 48-48 48s-48-21.49-48-48v0-48h-48c-61.856 0-112-50.144-112-112v0-576c0-61.856 50.144-112 112-112v0h672c61.856 0 112 50.144 112 112v0 576c0 61.856-50.144 112-112 112v0zM160 688c0 8.837 7.163 16 16 16v0h50.88c6.606-18.929 24.305-32.267 45.12-32.267s38.514 13.338 45.018 31.932l0.102 0.334h69.76c6.606-18.929 24.305-32.267 45.12-32.267s38.514 13.338 45.018 31.932l0.102 0.334h69.76c6.606-18.929 24.305-32.267 45.12-32.267s38.514 13.338 45.018 31.932l0.102 0.334h69.76c6.606-18.929 24.305-32.267 45.12-32.267s38.514 13.338 45.018 31.932l0.102 0.334h50.88c8.837 0 16-7.163 16-16v0-96h-704zM864 112c0-8.837-7.163-16-16-16v0h-672c-8.837 0-16 7.163-16 16v0 384h704z" />
<glyph unicode="&#xe905;" glyph-name="Odyssey_Camera" d="M848 736h-110.080c-0.005 0-0.010 0-0.015 0-5.543 0-10.44 2.763-13.39 6.987l-0.035 0.053-25.28 38.72c-20.382 30.414-54.596 50.181-93.431 50.24h-187.529c-0.072 0-0.157 0-0.243 0-38.62 0-72.648-19.659-92.623-49.517l-0.254-0.404-25.92-39.040c-2.985-4.277-7.882-7.040-13.425-7.040-0.005 0-0.011 0-0.016 0h-109.759c-61.856 0-112-50.144-112-112v0-448c0-61.856 50.144-112 112-112v0h672c61.856 0 112 50.144 112 112v0 448c0 61.856-50.144 112-112 112v0zM864 176c0-8.837-7.163-16-16-16v0h-672c-8.837 0-16 7.163-16 16v0 448c0 8.837 7.163 16 16 16v0h109.76c0.072 0 0.157 0 0.243 0 38.62 0 72.648 19.659 92.623 49.517l0.254 0.404 25.92 38.72c2.961 4.366 7.853 7.23 13.421 7.36h187.539c5.511-0.062 10.332-2.958 13.082-7.296l0.038-0.064 25.6-38.4c20.132-30.439 54.212-50.241 92.916-50.241 0.184 0 0.368 0 0.552 0.001h110.052c8.837 0 16-7.163 16-16v0zM512 624c-114.875 0-208-93.125-208-208s93.125-208 208-208c114.875 0 208 93.125 208 208v0c-0.182 114.802-93.198 207.818-207.982 208h-0.018zM512 304c-61.856 0-112 50.144-112 112s50.144 112 112 112c61.856 0 112-50.144 112-112v0c0-61.856-50.144-112-112-112v0z" />
<glyph unicode="&#xe906;" glyph-name="Odyssey_Checkmark" d="M320 112c-13.244 0.049-25.224 5.419-33.922 14.082l-207.998 207.998c-7.982 8.549-12.883 20.063-12.883 32.723 0 26.51 21.49 48 48 48 12.659 0 24.174-4.901 32.751-12.908l-0.028 0.026 174.080-174.080 558.080 558.080c8.549 7.982 20.063 12.883 32.723 12.883 26.51 0 48-21.49 48-48 0-12.659-4.901-24.174-12.908-32.751l0.026 0.028-592-592c-8.696-8.661-20.676-14.031-33.91-14.080h-0.010z" />
<glyph unicode="&#xe907;" glyph-name="Odyssey_Chevron-Down" d="M862.080 641.92l-350.080-350.080-350.080 350.080c-8.549 7.982-20.063 12.883-32.723 12.883-26.51 0-48-21.49-48-48 0-12.659 4.901-24.174 12.908-32.751l-0.026 0.028 384-384c8.684-8.674 20.676-14.038 33.92-14.038s25.236 5.364 33.921 14.038l383.999 383.999c7.982 8.549 12.883 20.063 12.883 32.723 0 26.51-21.49 48-48 48-12.659 0-24.174-4.901-32.751-12.908l0.028 0.026z" />
<glyph unicode="&#xe908;" glyph-name="Odyssey_Chevron-Left" d="M704 16c-13.244 0.049-25.224 5.419-33.922 14.082l-383.998 383.998c-8.752 8.648-14.172 20.651-14.172 33.92s5.42 25.272 14.167 33.915l384.005 384.005c8.549 7.982 20.063 12.883 32.723 12.883 26.51 0 48-21.49 48-48 0-12.659-4.901-24.174-12.908-32.751l0.026 0.028-350.080-350.080 350.080-350.080c8.752-8.648 14.172-20.651 14.172-33.92s-5.42-25.272-14.167-33.915l-0.005-0.005c-8.696-8.661-20.676-14.031-33.91-14.080h-0.010z" />
<glyph unicode="&#xe909;" glyph-name="Odyssey_Chevron-Right" d="M352 16c-13.244 0.049-25.224 5.419-33.922 14.082l0.002-0.002c-8.752 8.648-14.172 20.651-14.172 33.92s5.42 25.272 14.167 33.915l350.085 350.085-350.080 350.080c-7.982 8.549-12.883 20.063-12.883 32.723 0 26.51 21.49 48 48 48 12.659 0 24.174-4.901 32.751-12.908l-0.028 0.026 384-384c8.752-8.648 14.172-20.651 14.172-33.92s-5.42-25.272-14.167-33.915l-384.005-384.005c-8.696-8.661-20.676-14.031-33.91-14.080h-0.010z" />
<glyph unicode="&#xe90a;" glyph-name="Odyssey_Chevron-Up" d="M545.92 673.92c-8.648 8.752-20.651 14.172-33.92 14.172s-25.272-5.42-33.915-14.167l-384.005-384.005c-7.982-8.549-12.883-20.063-12.883-32.723 0-26.51 21.49-48 48-48 12.659 0 24.174 4.901 32.751 12.908l-0.028-0.026 350.080 350.080 350.080-350.080c8.684-8.674 20.676-14.038 33.92-14.038s25.236 5.364 33.921 14.038l-0.001-0.001c8.752 8.648 14.172 20.651 14.172 33.92s-5.42 25.272-14.167 33.915l-0.005 0.005z" />
<glyph unicode="&#xe90b;" glyph-name="Odyssey_Close" d="M579.84 448l366.080 366.080c7.982 8.549 12.883 20.063 12.883 32.723 0 26.51-21.49 48-48 48-12.659 0-24.174-4.901-32.751-12.908l0.028 0.026-366.080-366.080-366.080 366.080c-8.549 7.982-20.063 12.883-32.723 12.883-26.51 0-48-21.49-48-48 0-12.659 4.901-24.174 12.908-32.751l-0.026 0.028 366.080-366.080-366.080-366.080c-8.752-8.648-14.172-20.651-14.172-33.92s5.42-25.272 14.167-33.915l0.005-0.005c8.684-8.674 20.676-14.038 33.92-14.038s25.236 5.364 33.921 14.038l366.079 366.079 366.080-366.080c8.684-8.674 20.676-14.038 33.92-14.038s25.236 5.364 33.921 14.038l-0.001-0.001c8.752 8.648 14.172 20.651 14.172 33.92s-5.42 25.272-14.167 33.915l-0.005 0.005z" />
<glyph unicode="&#xe90c;" glyph-name="Odyssey_Copy" d="M960 560.32c0.159 1.392 0.25 3.005 0.25 4.64s-0.091 3.248-0.268 4.835l0.018-0.195v3.52c-0.746 2.476-1.615 4.596-2.66 6.612l0.1-0.212-1.92 3.52-3.84 5.76-2.56 2.56c-1.782 2.053-3.778 3.846-5.975 5.371l-0.105 0.069-111.040 104.64c-2.697 2.434-5.744 4.563-9.038 6.285l-0.242 0.115h-2.56c-3.413 1.783-7.371 3.219-11.532 4.105l-0.308 0.055h-102.080v73.28c-0.723 61.303-50.587 110.72-111.993 110.72-0.003 0-0.005 0-0.008 0h-418.24c-0.002 0-0.005 0-0.007 0-61.406 0-111.27-49.417-111.992-110.652l-0.001-0.068v-490.88c0-61.856 50.144-112 112-112v0h144v-70.4c0-61.856 50.144-112 112-112v0h416.64c61.58 0.363 111.36 50.367 111.36 111.998 0 0.001 0 0.001 0 0.002v0 448s0-0.32 0 0.32zM176 278.4c-8.837 0-16 7.163-16 16v0 490.88c0.683 8.268 7.563 14.72 15.949 14.72 0.018 0 0.036 0 0.054 0h418.237c8.765-0.176 15.824-7.235 16-15.983v-70.417h-179.84c-61.856 0-112-50.144-112-112v0-323.2zM848 96h-417.6c-8.837 0-16 7.163-16 16v0 490.88c0 8.837 7.163 16 16 16v0h322.24l2.56-64c1.225-25.612 22.216-45.932 47.985-46.080h60.815v-396.8c0-0.004 0-0.008 0-0.013 0-8.611-6.803-15.634-15.328-15.986l-0.032-0.001z" />
<glyph unicode="&#xe90d;" glyph-name="Odyssey_Credit" d="M384 624v224c0 26.51-21.49 48-48 48s-48-21.49-48-48v0-108.16l-142.080 142.080c-8.549 7.982-20.063 12.883-32.723 12.883-26.51 0-48-21.49-48-48 0-12.659 4.901-24.174 12.908-32.751l-0.026 0.028 142.080-142.080h-108.16c-26.51 0-48-21.49-48-48s21.49-48 48-48v0h224c26.51 0 48 21.49 48 48v0zM784.32 832h-283.84c-26.51 0-48-21.49-48-48s21.49-48 48-48v0h283.84c8.837 0 16-7.163 16-16v0-544c0-8.837-7.163-16-16-16v0h-544c-8.837 0-16 7.163-16 16v0 282.88c0 26.51-21.49 48-48 48s-48-21.49-48-48v0-283.2c0.18-61.494 49.892-111.318 111.326-111.68h544.034c61.856 0 112 50.144 112 112v0 544c0 0.001 0 0.001 0 0.002 0 61.631-49.78 111.635-111.325 111.998h-0.035z" />
<glyph unicode="&#xe90e;" glyph-name="Odyssey_Dashboard" d="M744.96 58.56h-465.92c-0.157-0.001-0.343-0.001-0.528-0.001-28.322 0-54.116 10.821-73.473 28.555l0.081-0.074c-88.761 82.11-144.147 199.19-144.147 329.207 0 187.295 114.934 347.746 278.121 414.669l2.986 1.084c5.709 2.588 12.38 4.096 19.402 4.096 26.51 0 48-21.49 48-48 0-20.25-12.54-37.572-30.278-44.622l-0.324-0.114c-126.403-54.693-214.206-176.384-218.865-319.102l-0.015-0.578c-0.052-2.262-0.081-4.928-0.081-7.6 0-102.025 43.015-194.003 111.898-258.789l0.184-0.171c2.116-1.607 4.795-2.575 7.7-2.575 0.218 0 0.435 0.005 0.65 0.016l-0.030-0.001h464.64c0.169-0.009 0.366-0.013 0.565-0.013 2.973 0 5.69 1.096 7.77 2.906l-0.014-0.012c68.226 63.884 110.737 154.51 110.737 255.066 0 1.229-0.006 2.456-0.019 3.681l0.002-0.187c0.001 0.31 0.002 0.676 0.002 1.042 0 145.066-87.754 269.637-213.073 323.523l-2.288 0.875c-17.468 7.454-29.489 24.483-29.489 44.32 0 26.537 21.512 48.049 48.049 48.049 6.7 0 13.079-1.371 18.873-3.848l-0.313 0.119c163.191-69.958 275.429-229.225 275.429-414.706 0-129.395-54.623-246.032-142.068-328.111l-0.241-0.224c-19.276-17.66-45.070-28.481-73.392-28.481-0.186 0-0.371 0-0.557 0.001h0.029zM560 523.2v276.8c0 26.51-21.49 48-48 48s-48-21.49-48-48v0-276.8c-57.496-20.456-97.92-74.407-97.92-137.799 0-80.589 65.331-145.92 145.92-145.92s145.92 65.331 145.92 145.92c0 63.393-40.424 117.344-96.901 137.482l-1.019 0.317zM512 336c-27.57 0-49.92 22.35-49.92 49.92s22.35 49.92 49.92 49.92c27.57 0 49.92-22.35 49.92-49.92v0c0-27.57-22.35-49.92-49.92-49.92v0z" />
<glyph unicode="&#xe90f;" glyph-name="Odyssey_Debit" d="M848.32 0h-544c-0.095 0-0.208 0-0.32 0-61.744 0-111.818 49.962-112 111.663v283.217c0 26.51 21.49 48 48 48s48-21.49 48-48v0-283.2c0-8.837 7.163-16 16-16v0h544c8.837 0 16 7.163 16 16v0 544c0 8.837-7.163 16-16 16v0h-283.52c-26.51 0-48 21.49-48 48s21.49 48 48 48v0h283.84c61.494-0.18 111.318-49.892 111.68-111.326v-544.034c0-0.095 0-0.208 0-0.32 0-61.744-49.962-111.818-111.663-112h-0.017zM227.52 800h108.16c26.51 0 48 21.49 48 48s-21.49 48-48 48v0h-224c-26.26-0.18-47.5-21.42-47.68-47.663v-224.017c0-26.51 21.49-48 48-48s48 21.49 48 48v0 108.16l142.080-142.080c8.591-8.695 20.515-14.081 33.696-14.081 0.079 0 0.157 0 0.236 0.001h-0.012c0.185-0.003 0.404-0.004 0.624-0.004 13.057 0 24.854 5.393 33.286 14.073l0.011 0.011c8.752 8.648 14.172 20.651 14.172 33.92s-5.42 25.272-14.167 33.915l-0.005 0.005z" />
<glyph unicode="&#xe910;" glyph-name="Odyssey_Download" d="M737.92 705.92c-8.648 8.752-20.651 14.172-33.92 14.172s-25.272-5.42-33.915-14.167l-110.085-110.085v252.48c0 26.51-21.49 48-48 48s-48-21.49-48-48v0-252.48l-110.080 110.080c-8.549 7.982-20.063 12.883-32.723 12.883-26.51 0-48-21.49-48-48 0-12.659 4.901-24.174 12.908-32.751l-0.026 0.028 192-192c8.684-8.674 20.676-14.038 33.92-14.038s25.236 5.364 33.921 14.038l191.999 191.999c8.752 8.648 14.172 20.651 14.172 33.92s-5.42 25.272-14.167 33.915l-0.005 0.005zM847.68 0h-672c-61.718 0.182-111.68 50.256-111.68 112 0 0.113 0 0.225 0 0.338v-0.018 224c0.181 61.606 50.074 111.499 111.663 111.68h128.017c26.51 0 48-21.49 48-48s-21.49-48-48-48v0h-128c-8.837 0-16-7.163-16-16v0-224c0-8.837 7.163-16 16-16v0h672c8.765 0.176 15.824 7.235 16 15.983v224.017c0 8.837-7.163 16-16 16v0h-128c-26.51 0-48 21.49-48 48s21.49 48 48 48v0h128c61.856 0 112-50.144 112-112v0-224c0-61.856-50.144-112-112-112v0z" />
<glyph unicode="&#xe911;" glyph-name="Odyssey_Edit" d="M928 773.76l-89.6 90.24c-20.504 19.747-48.432 31.911-79.2 31.911s-58.696-12.164-79.236-31.945l0.036 0.034-570.88-570.88c-17.4-17.307-29.078-40.352-31.954-66.058l-0.046-0.502-11.52-102.080c-0.444-3.745-0.697-8.083-0.697-12.48 0-61.856 50.144-112 112-112 0.020 0 0.040 0 0.061 0h-0.003c1.868-0.152 4.044-0.239 6.24-0.239s4.372 0.087 6.524 0.257l-0.284-0.018 101.76 11.2c26.285 3.033 49.403 14.683 66.889 32.008l-0.009-0.008 569.92 572.16c20.194 20.304 32.676 48.294 32.676 79.2s-12.483 58.896-32.681 79.205l0.005-0.005zM178.88 96c-0.64-0.095-1.379-0.149-2.131-0.149-4.306 0-8.198 1.772-10.986 4.626l-0.003 0.003c-3.557 2.898-5.81 7.278-5.81 12.184 0 0.442 0.018 0.88 0.054 1.313l-0.004-0.057 7.36 65.6 76.16-75.84zM861.12 683.2l-530.24-530.24-113.28 112.96 530.24 530.24c2.825 2.406 6.517 3.869 10.55 3.869 0.341 0 0.68-0.010 1.016-0.031l-0.046 0.002c4.392-0.065 8.346-1.889 11.197-4.797l0.003-0.003 90.56-91.2c2.772-2.873 4.48-6.789 4.48-11.104 0-0.034 0-0.068 0-0.101v0.005c-0.299-3.783-1.956-7.13-4.477-9.597l-0.003-0.003z" />
<glyph unicode="&#xe912;" glyph-name="Odyssey_Export" d="M800 480c-26.51 0-48-21.49-48-48v0-320c0-8.837-7.163-16-16-16v0h-448c-8.837 0-16 7.163-16 16v0 672c0 8.837 7.163 16 16 16v0h96c26.51 0 48 21.49 48 48s-21.49 48-48 48v0h-96c-61.856 0-112-50.144-112-112v0-672c0-61.856 50.144-112 112-112v0h448c61.856 0 112 50.144 112 112v0 320c0 26.51-21.49 48-48 48v0zM800 896h-192c-26.51 0-48-21.49-48-48s21.49-48 48-48v0h68.48l-196.48-171.84c-10.015-8.895-16.295-21.805-16.295-36.183 0-12.137 4.475-23.229 11.864-31.715l-0.050 0.058c8.895-10.015 21.805-16.295 36.183-16.295 12.137 0 23.229 4.475 31.715 11.864l-0.058-0.050 208.32 182.4v-82.24c0-26.51 21.49-48 48-48s48 21.49 48 48v0 192c0 0 0 0.001 0 0.001 0 26.397-21.308 47.817-47.663 47.999h-0.017z" />
<glyph unicode="&#xe913;" glyph-name="Odyssey_Filter" d="M912 784h-104.96c-20.084 56.302-72.941 95.874-135.040 95.874s-114.956-39.572-134.728-94.875l-0.312-0.999h-424.96c-26.51 0-48-21.49-48-48s21.49-48 48-48v0h424.96c20.084-56.302 72.941-95.874 135.040-95.874s114.956 39.572 134.728 94.875l0.312 0.999h104.96c26.51 0 48 21.49 48 48s-21.49 48-48 48v0zM672 688c-26.51 0-48 21.49-48 48s21.49 48 48 48c26.51 0 48-21.49 48-48v0c0-26.51-21.49-48-48-48v0zM912 208h-104.96c-20.084 56.302-72.941 95.874-135.040 95.874s-114.956-39.572-134.728-94.875l-0.312-0.999h-424.96c-26.51 0-48-21.49-48-48s21.49-48 48-48v0h424.96c20.084-56.302 72.941-95.874 135.040-95.874s114.956 39.572 134.728 94.875l0.312 0.999h104.96c26.51 0 48 21.49 48 48s-21.49 48-48 48v0zM672 112c-26.51 0-48 21.49-48 48s21.49 48 48 48c26.51 0 48-21.49 48-48v0c0-26.51-21.49-48-48-48v0zM912 496h-424.96c-20.084 56.302-72.941 95.874-135.040 95.874s-114.956-39.572-134.728-94.875l-0.312-0.999h-104.96c-26.51 0-48-21.49-48-48s21.49-48 48-48v0h104.96c20.084-56.302 72.941-95.874 135.040-95.874s114.956 39.572 134.728 94.875l0.312 0.999h424.96c26.51 0 48 21.49 48 48s-21.49 48-48 48v0zM352 400c-26.51 0-48 21.49-48 48s21.49 48 48 48c26.51 0 48-21.49 48-48v0c0-26.51-21.49-48-48-48v0z" />
<glyph unicode="&#xe914;" glyph-name="Odyssey_History" d="M727.040 0h-430.080c-0.016 0-0.035 0-0.054 0-36.848 0-69.887 16.304-92.299 42.091l-0.127 0.149c-18.136 20.78-29.195 48.144-29.195 78.092 0 6.32 0.493 12.526 1.441 18.58l-0.087-0.672c12.165 108.358 67.82 201.753 148.831 263.639l0.929 0.681c19.788 14.43 37.233 29.337 53.464 45.463l-0.024-0.023c-16.184 16.34-33.636 31.356-52.221 44.912l-1.219 0.848c-81.8 62.429-137.418 155.567-149.595 261.909l-0.165 1.771c-0.898 5.471-1.411 11.777-1.411 18.203 0 29.862 11.085 57.136 29.365 77.929l-0.114-0.132c22.437 26.119 55.502 42.56 92.408 42.56 0.025 0 0.051 0 0.076 0h430.076c0.021 0 0.047 0 0.072 0 36.906 0 69.972-16.441 92.272-42.399l0.136-0.162c18.166-20.662 29.251-47.935 29.251-77.797 0-6.426-0.513-12.731-1.501-18.879l0.090 0.676c-12.165-108.358-67.82-201.753-148.831-263.639l-0.929-0.681c-19.803-14.361-37.245-29.165-53.496-45.175l0.056 0.055c16.207-16.103 33.651-31.010 52.16-44.547l1.28-0.893c81.94-62.567 137.595-155.962 149.6-262.571l0.16-1.749c0.862-5.382 1.355-11.588 1.355-17.908 0-29.948-11.059-57.312-29.315-78.233l0.121 0.141c-22.539-25.936-55.579-42.24-92.426-42.24-0.019 0-0.038 0-0.057 0h0.003zM296.96 800c-0.028 0-0.060 0-0.093 0-7.86 0-14.912-3.456-19.722-8.931l-0.025-0.030c-3.694-4.447-5.936-10.215-5.936-16.507 0-1.062 0.064-2.109 0.188-3.137l-0.012 0.124c8.344-82.19 50.401-153.169 111.928-199.803l0.712-0.517c26.908-19.894 50.646-40.893 72.426-63.773l0.214-0.227c15.032-15.62 24.291-36.889 24.291-60.32s-9.259-44.7-24.318-60.348l0.027 0.028c-21.994-23.107-45.732-44.106-71.162-62.953l-1.478-1.047c-61.418-47.575-102.829-118.432-110.942-199.112l-0.098-1.208c-0.112-0.904-0.176-1.951-0.176-3.013 0-6.292 2.242-12.060 5.97-16.549l-0.034 0.043c4.835-5.504 11.887-8.96 19.747-8.96 0.033 0 0.065 0 0.098 0h428.475c0.028 0 0.060 0 0.093 0 7.86 0 14.912 3.456 19.722 8.931l0.025 0.030c3.694 4.447 5.936 10.215 5.936 16.507 0 1.062-0.064 2.109-0.188 3.137l0.012-0.124c-7.931 81.966-49.42 152.915-110.369 199.823l-0.671 0.497c-26.863 19.996-50.595 40.987-72.445 63.795l-0.195 0.205c-14.98 15.701-24.198 37.014-24.198 60.48s9.218 44.779 24.231 60.515l-0.033-0.035c21.994 23.107 45.732 44.106 71.162 62.953l1.478 1.047c61.62 47.405 103.109 118.354 110.948 199.152l0.092 1.168c0.112 0.904 0.176 1.951 0.176 3.013 0 6.292-2.242 12.060-5.97 16.549l0.034-0.043c-4.821 5.317-11.754 8.643-19.465 8.643-0.132 0-0.264-0.001-0.395-0.003h0.020zM365.12 153.6s73.28 110.080 146.88 110.080 146.88-110.080 146.88-110.080zM512 562.56c-32.351 4.873-59.465 23.871-75.253 50.396l-0.267 0.484c-3.218 4.908-5.133 10.922-5.133 17.383 0 5.337 1.307 10.369 3.617 14.793l-0.084-0.177c5.482 10.144 16.025 16.927 28.155 16.96h97.925c12.135-0.033 22.678-6.816 28.076-16.791l0.084-0.169c2.227-4.248 3.533-9.28 3.533-14.617 0-6.461-1.915-12.475-5.208-17.505l0.075 0.122c-16.055-27.009-43.169-46.007-74.939-50.808l-0.581-0.072z" />
<glyph unicode="&#xe915;" glyph-name="Odyssey_Image" d="M847.36 64h-672c-61.581 0.362-111.362 50.367-111.362 111.998 0 0.226 0.001 0.451 0.002 0.677v-0.035 543.36c0 0.001 0 0.001 0 0.002 0 61.631 49.78 111.635 111.325 111.998h672.035c0.19 0.001 0.415 0.002 0.64 0.002 61.856 0 112-50.144 112-112 0-0.001 0-0.001 0-0.002v0-544c0-0.001 0-0.001 0-0.002 0-61.856-50.144-112-112-112-0.225 0-0.45 0.001-0.675 0.002h0.035zM175.36 736c-8.837 0-16-7.163-16-16v0-544c0-8.837 7.163-16 16-16v0h672c8.837 0 16 7.163 16 16v0 544c-0.176 8.765-7.235 15.824-15.983 16h-0.017zM768 304c-13.244 0.049-25.224 5.419-33.922 14.082l-158.078 158.078-94.080-94.080c-8.648-8.752-20.651-14.172-33.92-14.172s-25.272 5.42-33.915 14.167l-30.085 30.085-94.080-94.080c-8.549-7.982-20.063-12.883-32.723-12.883-26.51 0-48 21.49-48 48 0 12.659 4.901 24.174 12.908 32.751l-0.026-0.028 128 128c8.648 8.752 20.651 14.172 33.92 14.172s25.272-5.42 33.915-14.167l30.085-30.085 94.080 94.080c8.648 8.752 20.651 14.172 33.92 14.172s25.272-5.42 33.915-14.167l192.005-192.005c8.752-8.648 14.172-20.651 14.172-33.92s-5.42-25.272-14.167-33.915l-0.005-0.005c-8.696-8.661-20.676-14.031-33.91-14.080h-0.010zM320 608c0-17.673-14.327-32-32-32s-32 14.327-32 32c0 17.673 14.327 32 32 32s32-14.327 32-32z" />
<glyph unicode="&#xe916;" glyph-name="Odyssey_Info" d="M512 144c-61.856 0-112 50.144-112 112v0 128c0 61.856 50.144 112 112 112s112-50.144 112-112v0-128c0-61.856-50.144-112-112-112v0zM512 400c-8.837 0-16-7.163-16-16v0-128c0-8.837 7.163-16 16-16s16 7.163 16 16v0 128c0 8.837-7.163 16-16 16v0zM512 527.68c-61.856 0-112 50.144-112 112s50.144 112 112 112c61.743 0 111.818-49.962 112-111.663v-0.017c0-0.095 0-0.207 0-0.32 0-61.856-50.144-112-112-112 0 0 0 0 0 0v0zM512 655.68c-8.837 0-16-7.163-16-16v0c0-8.837 7.163-16 16-16s16 7.163 16 16v0c0 8.837-7.163 16-16 16v0zM512 0c-247.424 0-448 200.576-448 448s200.576 448 448 448c247.424 0 448-200.576 448-448v0c-1.086-246.986-201.014-446.914-447.896-448h-0.104zM512 800c-194.404 0-352-157.596-352-352s157.596-352 352-352c194.404 0 352 157.596 352 352v0c-1.083 193.967-158.033 350.917-351.896 352h-0.104z" />
<glyph unicode="&#xe917;" glyph-name="Odyssey_Key" d="M896 208c-12.94 14.826-30.821 25.052-51.054 28.102l-0.466 0.058c-3.070 41.217-35.408 73.996-76.15 77.736l-0.33 0.024v14.4c-0.069 23.23-9.468 44.251-24.644 59.524l-147.196 147.196c-3.752 3.995-6.058 9.388-6.058 15.32 0 2.652 0.461 5.196 1.307 7.557l-0.049-0.156c5.587 20.363 8.797 43.744 8.797 67.875 0 147.040-119.2 266.24-266.24 266.24s-266.24-119.2-266.24-266.24c0-54.179 16.183-104.578 43.98-146.628l-0.617 0.993c47.802-72.784 129.058-120.177 221.384-120.177 24.493 0 48.206 3.335 70.711 9.577l-1.856-0.439c2.262 0.756 4.867 1.193 7.574 1.193 6.172 0 11.814-2.269 16.137-6.019l-0.031 0.026 337.92-337.6c14.918-16.025 35.998-26.141 59.444-26.559l0.076-0.001c9.525 0.063 18.648 1.698 27.151 4.659l-0.591-0.179c30.253 9.957 52.535 35.984 56.911 67.726l0.049 0.434 9.6 66.88c0.728 4.126 1.144 8.876 1.144 13.724 0 21.031-7.833 40.232-20.741 54.846l0.077-0.089zM814.4 112l-320 320c-21.011 20.961-50.011 33.923-82.038 33.923-0.296 0-0.592-0.001-0.887-0.003h0.045c-11.388-0.034-22.407-1.55-32.895-4.364l0.895 0.204c-12.874-3.497-27.655-5.506-42.905-5.506-93.844 0-169.92 76.076-169.92 169.92s76.076 169.92 169.92 169.92c93.844 0 169.92-76.076 169.92-169.92 0-15.566-2.093-30.644-6.013-44.966l0.278 1.192c-2.92-9.722-4.601-20.894-4.601-32.459 0-32.328 13.134-61.589 34.357-82.737l0.003-0.003 141.44-143.68v-21.44c0.028-44.093 33.96-80.253 77.136-83.82l0.304-0.020c3.189-38.485 31.845-69.431 68.929-76.084l0.511-0.076zM295.68 717.76l-53.44-53.44c-8.597-8.719-13.907-20.699-13.907-33.92s5.309-25.201 13.912-33.926l-0.005 0.006c8.591-8.695 20.515-14.081 33.696-14.081 0.079 0 0.157 0 0.236 0.001h-0.012c0.185-0.003 0.404-0.004 0.624-0.004 13.057 0 24.854 5.393 33.286 14.073l0.011 0.011 53.44 53.12c8.749 8.709 14.163 20.762 14.163 34.080 0 26.556-21.528 48.083-48.083 48.083-13.238 0-25.227-5.35-33.922-14.005l0.002 0.002z" />
<glyph unicode="&#xe918;" glyph-name="Odyssey_Merchant" d="M847.68 736h-672c-61.494-0.18-111.318-49.892-111.68-111.326v-512.034c-0.001-0.19-0.002-0.415-0.002-0.64 0-61.856 50.144-112 112-112 0.113 0 0.226 0 0.339 0.001h671.982c61.856 0 112 50.144 112 112v0 512c0 0.001 0 0.001 0 0.002 0 61.856-50.144 112-112 112-0.225 0-0.45-0.001-0.675-0.002h0.035zM431.68 111.36v210.56c0 8.837 7.163 16 16 16v0h128c8.837 0 16-7.163 16-16v0-209.92zM864.32 111.36c0-8.837-7.163-16-16-16v0h-160v226.56c0 61.856-50.144 112-112 112v0h-128.32c-61.856 0-112-50.144-112-112v0-225.92h-160c-8.837 0-16 7.163-16 16v0 512c0 8.837 7.163 16 16 16v0h672c8.837 0 16-7.163 16-16v0zM112.32 800h800c26.51 0 48 21.49 48 48s-21.49 48-48 48v0h-800c-26.51 0-48-21.49-48-48s21.49-48 48-48v0z" />
<glyph unicode="&#xe919;" glyph-name="Odyssey_Option-Horizontal" d="M960 448c0-44.183-35.817-80-80-80s-80 35.817-80 80c0 44.183 35.817 80 80 80s80-35.817 80-80zM592 448c0-44.183-35.817-80-80-80s-80 35.817-80 80c0 44.183 35.817 80 80 80s80-35.817 80-80zM224 448c0-44.183-35.817-80-80-80s-80 35.817-80 80c0 44.183 35.817 80 80 80s80-35.817 80-80z" />
<glyph unicode="&#xe91a;" glyph-name="Odyssey_Option-Vertical" d="M592 816c0-44.183-35.817-80-80-80s-80 35.817-80 80c0 44.183 35.817 80 80 80s80-35.817 80-80zM592 448c0-44.183-35.817-80-80-80s-80 35.817-80 80c0 44.183 35.817 80 80 80s80-35.817 80-80zM592 80c0-44.183-35.817-80-80-80s-80 35.817-80 80c0 44.183 35.817 80 80 80s80-35.817 80-80z" />
<glyph unicode="&#xe91b;" glyph-name="Odyssey_People" d="M878.4 518.72c-15.897 15.374-33.87 28.758-53.418 39.654l-1.302 0.666c24.478 28.912 39.36 66.629 39.36 107.821 0 92.43-74.93 167.36-167.36 167.36s-167.36-74.93-167.36-167.36c0-41.192 14.882-78.909 39.562-108.066l-0.202 0.245c-20.007-11.899-37.317-25.237-52.861-40.379l0.061 0.059c-16.068 15.652-34.254 29.25-54.059 40.294l-1.301 0.666c24.478 28.912 39.36 66.629 39.36 107.821 0 92.43-74.93 167.36-167.36 167.36s-167.36-74.93-167.36-167.36c0-41.192 14.882-78.909 39.562-108.066l-0.202 0.245c-83.916-48.209-139.52-137.325-139.52-239.429 0-0.088 0-0.177 0-0.265v0.014-141.44c0.18-63.31 51.544-114.564 114.88-114.564 0.338 0 0.675 0.001 1.012 0.004h664.268c0.286-0.003 0.624-0.004 0.962-0.004 63.446 0 114.88 51.434 114.88 114.88 0 0.226-0.001 0.453-0.002 0.679v-0.035 149.76c-0.094 74.544-31.371 141.765-81.485 189.332l-0.115 0.108zM329.28 736c0.095 0 0.207 0.001 0.319 0.001 39.588 0 71.68-32.092 71.68-71.68s-32.092-71.68-71.68-71.68c-39.588 0-71.68 32.092-71.68 71.68 0 0.112 0 0.224 0.001 0.337v-0.017c0 39.411 31.949 71.36 71.36 71.36v0zM430.72 320v-160h-250.88c-0.391-0.029-0.847-0.046-1.307-0.046-10.25 0-18.56 8.31-18.56 18.56 0 0.354 0.010 0.706 0.029 1.055l-0.002-0.048v140.48c-0.013 0.779-0.020 1.699-0.020 2.621 0 91.919 71.373 167.167 161.722 173.35l0.538 0.029h5.76c0.165 0.001 0.361 0.001 0.557 0.001 50.935 0 96.555-22.754 127.251-58.651l0.192-0.23c-15.966-33.802-25.286-73.428-25.286-115.231 0-0.664 0.002-1.327 0.007-1.99l-0.001 0.102zM694.72 736c0.095 0 0.207 0.001 0.319 0.001 39.588 0 71.68-32.092 71.68-71.68s-32.092-71.68-71.68-71.68c-39.588 0-71.68 32.092-71.68 71.68 0 0.112 0 0.224 0.001 0.337v-0.017c0 39.411 31.949 71.36 71.36 71.36v0zM864 179.52c0-10.25-8.31-18.56-18.56-18.56v0h-318.72v159.040c-0.023 1.053-0.036 2.294-0.036 3.539 0 92.15 71.732 167.546 162.404 173.395l0.512 0.026c0.916 0.018 1.997 0.028 3.080 0.028 46.367 0 88.363-18.712 118.849-48.997l-0.009 0.009c31.737-29.852 51.728-71.88 52.478-118.583l0.002-0.137z" />
<glyph unicode="&#xe91c;" glyph-name="Odyssey_Plus" d="M912.32 496h-352v350.080c0 26.51-21.49 48-48 48s-48-21.49-48-48v0-350.080h-352c-26.51 0-48-21.49-48-48s21.49-48 48-48v0h352v-352c0-26.51 21.49-48 48-48s48 21.49 48 48v0 352h352c26.51 0 48 21.49 48 48s-21.49 48-48 48v0z" />
<glyph unicode="&#xe91d;" glyph-name="Odyssey_Profile" d="M634.88 519.040c51.672 38.294 84.8 99.073 84.8 167.588 0 114.875-93.125 208-208 208s-208-93.125-208-208c0-68.515 33.128-129.293 84.239-167.191l0.561-0.397c-49.74-18.004-92.388-44.69-128.168-78.558l0.168 0.158c-71.491-67.208-116.123-162.277-116.48-267.774v-59.906c-0.003-0.285-0.004-0.622-0.004-0.96 0-61.856 50.144-112 112-112 0.001 0 0.003 0 0.004 0h512c61.856 0 112 50.144 112 112v0 49.92c0.005 0.717 0.008 1.564 0.008 2.413 0 161.245-100.643 298.984-242.537 353.827l-2.59 0.88zM512 800c61.856 0 112-50.144 112-112s-50.144-112-112-112c-61.856 0-112 50.144-112 112v0c0 61.856 50.144 112 112 112v0zM784 114.24c0-8.837-7.163-16-16-16v0h-512c-8.837 0-16 7.163-16 16v0 58.56c0.182 150.148 121.852 271.818 271.982 272h18.258c142.856-13.177 253.853-132.431 253.853-277.608 0-2.529-0.034-5.050-0.101-7.562l0.008 0.371z" />
<glyph unicode="&#xe91e;" glyph-name="Odyssey_Search" d="M945.92 81.92l-273.92 275.52c43.522 57.483 69.714 130.186 69.714 209.006 0 192.283-155.877 348.16-348.16 348.16s-348.16-155.877-348.16-348.16c0-192.283 155.877-348.16 348.16-348.16 78.82 0 151.522 26.192 209.879 70.347l-0.873-0.633 275.52-275.52c8.684-8.674 20.676-14.038 33.92-14.038s25.236 5.364 33.921 14.038l-0.001-0.001c9.245 8.716 15.001 21.046 15.001 34.72s-5.756 26.004-14.978 34.698l-0.024 0.022zM394.24 315.2c-138.38 0-250.56 112.18-250.56 250.56s112.18 250.56 250.56 250.56c138.38 0 250.56-112.18 250.56-250.56v0c0-138.38-112.18-250.56-250.56-250.56v0z" />
<glyph unicode="&#xe91f;" glyph-name="Odyssey_Setting" d="M512 0c-16.419 0.060-32.547 0.989-48.426 2.742l2.026-0.182c-47.288 4.938-84.62 41.832-90.193 88.48l-0.047 0.48c0.002 0.052 0.003 0.112 0.003 0.173 0 2.197-1.475 4.048-3.489 4.619l-0.034 0.008c-0.773 0.652-1.78 1.048-2.88 1.048s-2.107-0.396-2.887-1.054l0.007 0.006c-17.677-14.682-40.605-23.592-65.615-23.592-23.56 0-45.274 7.907-62.631 21.213l0.246-0.181c-23.635 18.388-44.571 38.004-63.587 59.368l-0.413 0.472c-15.152 17.62-24.378 40.716-24.378 65.967 0 23.468 7.969 45.074 21.349 62.261l-0.17-0.228c2.24 2.88 3.84 4.8 2.56 8-0.686 2.042-2.57 3.491-4.797 3.52h-12.163c-45.141 5.688-80.797 40.149-88.236 84.2l-0.084 0.6c-2.71 18.274-4.258 39.367-4.258 60.82 0 3.256 0.036 6.504 0.107 9.742l-0.008-0.483c0 9.28 0 18.88 0 28.16 3.765 48.368 41.052 86.973 88.473 92.752l0.487 0.048h9.6c2.122 0.327 3.876 1.658 4.783 3.483l0.017 0.037c0.544 0.864 0.868 1.914 0.868 3.040s-0.323 2.176-0.882 3.064l0.014-0.024-11.2 14.080c-13.106 17.067-21.004 38.731-21.004 62.24s7.897 45.173 21.183 62.484l-0.18-0.244c19.549 25.367 40.54 47.778 63.481 68.031l0.519 0.449c17.782 15.28 41.085 24.584 66.561 24.584 23.876 0 45.844-8.172 63.259-21.871l-0.22 0.167 14.72-11.52c0.826-0.485 1.82-0.772 2.88-0.772s2.054 0.287 2.907 0.786l-0.027-0.015c1.862 0.924 3.193 2.678 3.515 4.764l0.005 0.036 2.56 22.080c5.62 47.128 42.952 84.022 89.803 88.923l0.437 0.037c13.926 1.681 30.051 2.641 46.4 2.641s32.474-0.959 48.322-2.825l-1.922 0.184c47.288-4.938 84.62-41.832 90.193-88.48l0.047-0.48 2.56-22.080c0.327-2.122 1.658-3.876 3.483-4.783l0.037-0.017c0.884-0.458 1.931-0.727 3.040-0.727s2.156 0.269 3.078 0.745l-0.038-0.018 14.4 11.52c17.043 13.138 38.698 21.057 62.202 21.057 25.124 0 48.135-9.048 65.952-24.064l-0.154 0.126c23.554-20.624 44.554-43.045 63.187-67.374l0.813-1.106c13.106-17.067 21.004-38.731 21.004-62.24s-7.897-45.173-21.183-62.484l0.18 0.244-11.2-14.080c-0.544-0.864-0.868-1.914-0.868-3.040s0.323-2.176 0.882-3.064l-0.014 0.024c0.924-1.862 2.678-3.193 4.764-3.515l0.036-0.005h9.6c47.772-5.97 84.901-44.527 88.618-92.453l0.022-0.347c0-9.28 0-18.88 0-28.16-0.067-23.89-2.043-47.266-5.783-70.048l0.343 2.528c-7.523-44.651-43.179-79.112-87.817-84.748l-0.503-0.052h-12.48c-2.136-0.067-3.915-1.52-4.472-3.486l-0.008-0.034c-0.555-0.807-0.887-1.805-0.887-2.88s0.332-2.073 0.898-2.897l-0.011 0.017 2.24-2.56c13.255-17.089 21.249-38.837 21.249-62.452 0-25.748-9.503-49.277-25.193-67.27l0.104 0.122c-19.34-21.808-40.284-41.332-62.94-58.738l-1.060-0.782c-17.054-13.459-38.858-21.588-62.56-21.588s-45.506 8.129-62.775 21.752l0.215-0.164c-2.24 1.6-4.16 3.2-7.36 1.92-2.042-0.686-3.491-2.57-3.52-4.797v-3.203c-6.833-45.64-43.457-80.955-89.165-85.723l-0.435-0.037c-13.624-1.649-29.615-2.69-45.811-2.878l-0.269-0.002zM369.92 192c0.016 0 0.035 0 0.053 0 51.851 0 94.616-38.903 100.699-89.114l0.048-0.486c0.269-2.783 2.379-5.002 5.085-5.435l0.035-0.005c10.848-1.223 23.422-1.92 36.16-1.92s25.312 0.697 37.688 2.056l-1.528-0.136c2.741 0.438 4.851 2.657 5.118 5.415l0.002 0.025v3.2c8.12 48.947 50.143 85.811 100.775 85.811 23.901 0 45.884-8.214 63.279-21.974l-0.214 0.163c3.84-2.88 6.72-3.2 8.96-1.6 18.447 14.336 34.778 29.653 49.594 46.346l0.326 0.374c0.827 0.99 1.329 2.276 1.329 3.68s-0.502 2.69-1.336 3.689l0.007-0.009-1.92 2.56c-13.373 17.060-21.446 38.831-21.446 62.488 0 51.917 38.879 94.753 89.111 100.981l0.496 0.050h12.16c2.408 0.271 4.372 1.913 5.108 4.117l0.012 0.043c2.853 16.296 4.483 35.060 4.483 54.205 0 0.519-0.001 1.037-0.004 1.555v-0.080c0 7.040 0 14.4 0 21.44 0 1.6-2.24 3.84-5.12 4.16h-9.28c-50.73 6.452-89.554 49.346-89.554 101.309 0 23.663 8.052 45.446 21.565 62.758l-0.17-0.226 11.52 14.4c0.774 1.009 1.24 2.29 1.24 3.68s-0.466 2.671-1.251 3.695l0.011-0.015c-15.091 20.085-31.593 37.704-49.804 53.393l-0.436 0.367c-0.99 0.827-2.276 1.329-3.68 1.329s-2.69-0.502-3.689-1.336l0.009 0.007-14.72-11.52c-17.092-13.36-38.888-21.423-62.568-21.423-51.859 0-94.686 38.671-101.217 88.749l-0.055 0.514-2.56 22.080c-0.269 2.783-2.379 5.002-5.085 5.435l-0.035 0.005c-10.848 1.223-23.422 1.92-36.16 1.92s-25.312-0.697-37.688-2.056l1.528 0.136c-2.649-0.405-4.715-2.471-5.116-5.086l-0.004-0.034-2.56-22.4c-6.672-50.504-49.456-89.076-101.248-89.076-24.119 0-46.285 8.365-63.754 22.352l0.202-0.157-14.72 11.52c-0.965 0.889-2.259 1.434-3.68 1.434s-2.715-0.545-3.684-1.437l0.004 0.003c-18.647-16.056-35.148-33.674-49.624-52.905l-0.616-0.855c-0.774-1.009-1.24-2.29-1.24-3.68s0.466-2.671 1.251-3.695l-0.011 0.015 11.2-12.8c13.516-17.151 21.678-39.070 21.678-62.896 0-51.836-38.637-94.648-88.683-101.209l-0.516-0.055h-9.92c-2.56 0-4.8-2.56-4.8-4.16 0-7.040 0-14.4 0-21.44 0.082-18.708 1.708-36.975 4.757-54.756l-0.277 1.956c0.748-2.247 2.712-3.889 5.092-4.157l0.028-0.003h12.16c37.133-4.409 67.734-28.506 81.355-61.413l0.245-0.667c5.694-12.303 9.016-26.701 9.016-41.876 0-24.939-8.971-47.782-23.862-65.479l0.127 0.155c-3.52-4.48-3.52-7.68-2.24-9.28 15.155-16.603 31.59-31.515 49.326-44.785l0.914-0.655c0.991-0.661 2.21-1.055 3.52-1.055s2.529 0.394 3.543 1.070l-0.023-0.015c17.758 14.15 40.518 22.708 65.277 22.72h0.003zM512 288c-88.366 0-160 71.634-160 160s71.634 160 160 160c88.366 0 160-71.634 160-160v0c0-88.366-71.634-160-160-160v0zM512 512c-35.346 0-64-28.654-64-64s28.654-64 64-64c35.346 0 64 28.654 64 64v0c0 35.346-28.654 64-64 64v0z" />
<glyph unicode="&#xe920;" glyph-name="Odyssey_Token" d="M957.76 444.16c-0.338 29.964-7.387 58.202-19.708 83.391l0.508-1.151c12.036 24.615 19.111 53.551 19.2 84.13v0.030c0 160-196.16 285.44-448 285.44v0c-249.28 0-445.76-125.44-445.76-285.76 0.158-30.612 7.224-59.536 19.716-85.343l-0.516 1.183c-12.148-24.129-19.262-52.588-19.262-82.707 0-28.014 6.153-54.591 17.182-78.452l-0.481 1.16c-10.443-22.967-16.563-49.799-16.64-78.052v-0.028c0-81.28 49.92-155.52 140.16-209.6 84.518-47.049 185.387-74.747 292.725-74.747 5.315 0 10.614 0.068 15.896 0.203l-0.781-0.016c250.56 0 448 125.76 448 285.76-0.268 27.855-6.368 54.219-17.134 78.020l0.494-1.22c9.133 21.85 14.439 47.238 14.439 73.865 0 1.369-0.014 2.735-0.042 4.098l0.003-0.204zM204.48 400.96c84.973-48.202 186.643-76.61 294.949-76.61 4.42 0 8.83 0.047 13.227 0.141l-0.656-0.011c5.593-0.198 12.164-0.311 18.762-0.311 124.152 0 238.975 39.945 332.317 107.684l-1.639-1.133c-13.44-96-167.68-176.32-349.44-176.32v0c-2.624-0.049-5.718-0.076-8.819-0.076-90.75 0-175.951 23.759-249.722 65.395l2.541-1.319c-32 19.2-84.16 58.56-91.84 113.6 12.024-10.636 25.175-20.839 38.963-30.173l1.357-0.867zM512 800v0c190.080 0 352-86.72 352-189.44s-160-190.080-352-190.080v0c-2.384-0.040-5.197-0.063-8.016-0.063-91.019 0-176.491 23.75-250.557 65.392l2.572-1.329c-34.88 20.8-93.44 64-93.44 128-2.56 100.48 157.44 187.52 349.44 187.52zM512 99.84v0c-2.384-0.040-5.197-0.063-8.016-0.063-91.019 0-176.491 23.75-250.557 65.392l2.572-1.329c-41.236 21.101-73.186 55.431-90.729 97.294l-0.471 1.266c11.644-9.563 24.6-18.749 38.188-26.999l1.492-0.841c84.995-48.006 186.631-76.292 294.873-76.292 4.447 0 8.883 0.048 13.307 0.143l-0.66-0.011c5.617-0.198 12.217-0.311 18.843-0.311 122.613 0 236.187 38.698 329.175 104.547l-1.778-1.195c-26.24-89.92-174.72-161.6-346.24-161.6z" />
<glyph unicode="&#xe921;" glyph-name="Odyssey_Transaction" d="M848 272.96h-620.16l94.080 94.080c9.411 8.787 15.277 21.267 15.277 35.117 0 26.51-21.49 48-48 48-13.85 0-26.33-5.866-35.092-15.249l-0.026-0.028-176-176c-8.752-8.648-14.172-20.651-14.172-33.92s5.42-25.272 14.167-33.915l176.005-176.005c8.684-8.674 20.676-14.038 33.92-14.038s25.236 5.364 33.921 14.038l-0.001-0.001c8.752 8.648 14.172 20.651 14.172 33.92s-5.42 25.272-14.167 33.915l-94.085 94.085h620.16c26.51 0 48 21.49 48 48s-21.49 48-48 48v0zM946.24 704l-176 176c-8.648 8.752-20.651 14.172-33.92 14.172s-25.272-5.42-33.915-14.167l-0.005-0.005c-8.597-8.719-13.907-20.699-13.907-33.92s5.309-25.201 13.912-33.926l-0.005 0.006 94.080-94.080h-620.16c-26.51 0-48-21.49-48-48s21.49-48 48-48v0h620.16l-92.48-93.76c-8.597-8.719-13.907-20.699-13.907-33.92s5.309-25.201 13.912-33.926l-0.005 0.006c8.731-8.605 20.689-13.957 33.896-14.080h0.024c0.027 0 0.059 0 0.091 0 13.224 0 25.19 5.383 33.827 14.078l176.003 176.003c8.188 8.547 13.229 20.166 13.229 32.963 0 13.591-5.686 25.854-14.81 34.539l-0.020 0.019z" />
<glyph unicode="&#xe922;" glyph-name="Odyssey_Upload" d="M847.68 448h-128c-26.51 0-48-21.49-48-48s21.49-48 48-48v0h128c8.837 0 16-7.163 16-16v0-224c0-8.837-7.163-16-16-16v0h-672c-8.837 0-16 7.163-16 16v0 224c0 8.837 7.163 16 16 16v0h128c26.51 0 48 21.49 48 48s-21.49 48-48 48v0h-128c-61.718-0.182-111.68-50.256-111.68-112 0 0 0 0 0 0v0-224c0 0 0 0 0 0 0-61.743 49.962-111.818 111.663-112h672.017c0.095 0 0.207 0 0.32 0 61.856 0 112 50.144 112 112 0 0 0 0 0 0v0 224c0 0 0 0 0 0 0 61.856-50.144 112-112 112-0.113 0-0.225 0-0.337 0h0.017zM353.92 622.080l110.080 110.080v-332.16c0-26.51 21.49-48 48-48s48 21.49 48 48v0 332.16l110.080-110.080c8.684-8.674 20.676-14.038 33.92-14.038s25.236 5.364 33.921 14.038l-0.001-0.001c8.752 8.648 14.172 20.651 14.172 33.92s-5.42 25.272-14.167 33.915l-192.005 192.005c-8.648 8.752-20.651 14.172-33.92 14.172s-25.272-5.42-33.915-14.167l-192.005-192.005c-7.982-8.549-12.883-20.063-12.883-32.723 0-26.51 21.49-48 48-48 12.659 0 24.174 4.901 32.751 12.908l-0.028-0.026z" />
<glyph unicode="&#xe923;" glyph-name="Odyssey_Wallet" d="M960 788.8c-2.797 59.498-51.488 106.736-111.315 107.2h-576.045c-0.192 0.001-0.42 0.002-0.647 0.002-61.856 0-112-50.144-112-112 0-0.451 0.003-0.901 0.008-1.35l-0.001 0.068v-14.72c-54.626-8.387-95.977-55.041-96-111.357v-496.643c0-61.856 50.144-112 112-112v0h672c61.856 0 112 50.144 112 112v0 608c0.076 1.005 0.119 2.178 0.119 3.36s-0.043 2.355-0.128 3.515l0.009-0.155c0.075 0.576 0.118 1.243 0.118 1.92s-0.043 1.343-0.126 1.998l0.008-0.078c0.076 0.624 0.119 1.347 0.119 2.080s-0.043 1.456-0.127 2.166l0.008-0.086v1.92c0.082 0.625 0.128 1.347 0.128 2.080s-0.047 1.455-0.137 2.164l0.009-0.084zM256 782.72c0 8.837 7.163 16 16 16v0h576c8.449-0.144 15.324-6.686 15.996-14.982l0.004-0.058c-0.676-8.353-7.551-14.896-15.986-15.040h-592.014zM160 456h144c8.837 0 16-7.163 16-16v0-64c0-8.837-7.163-16-16-16v0h-144zM864 160c-0.176-8.765-7.235-15.824-15.983-16h-672.017c-8.765 0.176-15.824 7.235-16 15.983v104.017h144c61.856 0 112 50.144 112 112v0 64c0 61.856-50.144 112-112 112v0h-144v104.64c0 8.837 7.163 16 16 16v0h672c2.391-0.151 5.186-0.238 8-0.238s5.609 0.086 8.38 0.256l-0.38-0.019z" />
</font>
</defs>
</svg>
